Polar 2019 720p NF WEB-DL x264 [MW] Torrent Free Download

Seeders : 464   &   Leechers : 935      11-02-2019 (1 week)
Polar 2019 720p NF WEB-DL x264 [MW] Torrent Download
Added: ago by moviezworldz ***** in Movies   1.0 GB   Hits : 15
Info Hash: 393D23F1279B852BC77BA01E12BE6BA889C28346 Download
Polar 2019 720p NF WEB-DL x264 [MW] Torrent Download

Anonymous and Direct Download movies , software , shows...

Fast Safe Anonymous
movies, software, shows...
Polar
Action /Crime  .   118 min   6.3/10
Director : Jonas Åkerlund  
Tags: Polar  2019  720p  NF  WEB-DL  x264  

Released:
25 Jan 2019
The world's top assassin, Duncan Vizla, is settling into retirement when his former employer marks him as a liability to the firm. Against his will, he finds himself back in the game going head to head with an army of younger killers.

Torrent Description







General
Format : Matroska
Format version : Version 4
File size : 1.02 GiB
Duration : 1 h 58 min
Overall bit rate : 1 232 kb/s

Video
ID : 1
Format : AVC
Format/Info : Advanced Video Codec
Format profile : [email protected]
Format settings : CABAC / 4 Ref Frames
Format settings, CABAC : Yes
Format settings, RefFrames : 4 frames
Codec ID : V_MPEG4/ISO/AVC
Duration : 1 h 58 min
Bit rate : 1 150 kb/s
Width : 1 280 pixels
Height : 640 pixels
Display aspect ratio : 2.000
Frame rate mode : Constant
Frame rate : 23.976 (24000/1001) FPS
Color space : YUV
Chroma subsampling : 4:2:0
Bit depth : 8 bits
Scan type : Progressive
Bits/(Pixel*Frame) : 0.059
Stream size : 937 MiB (89%)
Writing library : x264 core 157 r2935 545de2f

Audio
ID : 2
Format : AAC LC
Codec ID : A_AAC-2
Duration : 1 h 58 min
Bit rate : 128 kb/s
Channel(s) : 2 channels
Channel layout : L R
Sampling rate : 48.0 kHz
Frame rate : 46.875 FPS (1024 SPF)
Compression mode : Lossy
Stream size : 109 MiB (10%)
Language : English
Default : Yes
Forced : No


Click To View Image










Sharing Widget


No Comments For This Torrent . Be The First to Comment

You must Login to Comment . Click Here to Login

Menu 1

Some content in menu 1.

Polar 2019 720p NF WEB-DL x264 [MW] (Size: 1.0 GB)
  Polar 2019 720p NF WEB-DL x264 [MW] 1.0 GB
tracker name
udp://tracker.leechers-paradise.org:6969/announce
udp://zer0day.ch:1337/announce
udp://open.demonii.com:1337/announce
udp://tracker.coppersurfer.tk:6969/announce
udp://exodus.desync.com:6969/announce
µTorrent compatible trackers list

Relative Torrents

Torrent Name Size Age SEED LEECH
Dororo S01E06 The Story Of The Moriko Sog Part Two 480p x264-mSD [eztv]
Posted by    EZTVag   in   TV
92.4 MB 29 seconds 524 154
This Is Us S03E13 Our Little Island Girl720p AMZN WEB-DL DDP5 1 H 264-KiNGS [ez
Posted by    EZTVag   in   TV
1.2 GB 29 seconds 254 294
Captain Morten and the Spider Queen 20181080p WEB-DL DD5 1 H264-CMRG[EtHD]
Posted by    EtHD   in   Movies
3.0 GB 4 minutes 947 437
Dororo S01E06 The Story Of The Moriko Sog Part Two 720p WEB h264-URANiME [eztv]
Posted by    EZTVag   in   TV
270.0 MB 10 minutes 941 295
Stephen Colbert 2019 02 19 Andrew McCabe720p HDTV x264-SORNY [eztv]
Posted by    EZTVag   in   TV
1.3 GB 10 minutes 500 630