The Man Who Killed Hitler and Then the B Torrent Free Download

Seeders : 185   &   Leechers : 658      12-02-2019 (1 week)
The Man Who Killed Hitler and Then the B Torrent Download
Added: ago by moviezworldz ***** in Movies   926.9 MB   Hits : 19
Info Hash: EF0929E2DC0C98B12512CC21AA78CBA3CE3E1020 Download
The Man Who Killed Hitler and Then the B Torrent Download

Anonymous and Direct Download movies , software , shows...

Fast Safe Anonymous
movies, software, shows...
The Man Who Killed Hitler and Then The Bigfoot
Adventure /Drama /Sci-Fi /War  .   98 min   5.6/10
Director : Robert D. Krzykowski  
Writer: Robert D. Krzykowski  
Tags: The  Man  Who  Killed  Hitler  and  

Released:
08 Feb 2019
A legendary American war veteran is recruited to hunt a mythical creature.

Torrent Description







General
Format : Matroska
Format version : Version 4
File size : 927 MiB
Duration : 1 h 37 min
Overall bit rate : 1 325 kb/s

Video
ID : 1
Format : AVC
Format/Info : Advanced Video Codec
Format profile : [email protected]
Format settings : CABAC / 4 Ref Frames
Format settings, CABAC : Yes
Format settings, RefFrames : 4 frames
Codec ID : V_MPEG4/ISO/AVC
Duration : 1 h 37 min
Bit rate : 1 200 kb/s
Width : 1 280 pixels
Height : 532 pixels
Display aspect ratio : 2.40:1
Frame rate mode : Constant
Frame rate : 23.976 (24000/1001) FPS
Color space : YUV
Chroma subsampling : 4:2:0
Bit depth : 8 bits
Scan type : Progressive
Bits/(Pixel*Frame) : 0.073
Stream size : 836 MiB (90%)
Writing library : x264 core 157 r2935 545de2f

Audio
ID : 2
Format : AAC LC
Codec ID : A_AAC-2
Duration : 1 h 37 min
Bit rate : 128 kb/s
Channel(s) : 2 channels
Channel layout : L R
Sampling rate : 48.0 kHz
Frame rate : 46.875 FPS (1024 SPF)
Compression mode : Lossy
Stream size : 89.7 MiB (10%)
Language : English
Default : Yes
Forced : No


Click To View Image










Sharing Widget


No Comments For This Torrent . Be The First to Comment

You must Login to Comment . Click Here to Login

Menu 1

Some content in menu 1.

The Man Who Killed Hitler and Then the Bigfoot 2018 720p WEB-DL x264 [ (Size: 926.9 MB)
  The Man Who Killed Hitler and Then the Bigfoot 2018 720p WEB-DL x264 [ 926.9 MB
tracker name
udp://tracker.leechers-paradise.org:6969/announce
udp://zer0day.ch:1337/announce
udp://open.demonii.com:1337/announce
udp://tracker.coppersurfer.tk:6969/announce
udp://exodus.desync.com:6969/announce
µTorrent compatible trackers list

Relative Torrents

Torrent Name Size Age SEED LEECH
Demon House 2018 1080p AMZN WEB-DL DDP5 H 264-NTG[EtHD]
Posted by    EtHD   in   Movies
6.2 GB 2 minutes 569 397
Of Fathers and Sons 2017 720p AMZN WEB-D DD+5 1 H 264-QOQ[EtHD]
Posted by    EtHD   in   Movies
4.3 GB 2 minutes 652 493
Demon House 2018 720p AMZN WEB-DL DDP5 1H 264-NTG[EtHD]
Posted by    EtHD   in   Movies
2.3 GB 2 minutes 462 883
Full Metal Jacket (1987) 720p H264 italin english Ac3-5 1 sub ita eng-MIRCrew
Posted by    robbyrs   in   Movies
2.2 GB 2 minutes 696 406
Molly's Game (2017 ITA/ENG) [1080p x265][Paso77]
Posted by    paso77   in   Movies
2.8 GB 2 minutes 611 950